Posted : 1 Week ago

  1. Apple.Seed.2019.AMZN.WEB-DL.x264.AAC2.0-RypS.mkv
  2. General
  3. Unique ID                                : 65542163871711576244059206617171934641 (0x314EF62B8D3D4D36C68C8E217B32BDB1)
  4. Complete name                            : D:\Apple.Seed.2019.AMZN.WEB-DL.x264.AAC2.0-RypS.mkv
  5. Format                                   : Matroska
  6. Format version                           : Version 4
  7. File size                                : 881 MiB
  8. Duration                                 : 1 h 59 min
  9. Overall bit rate                         : 1 027 kb/s
  10. Movie name                               : Scene-RLS.net
  11. Encoded date                             : UTC 2020-08-02 04:45:05
  12. Writing application                      : mkvmerge v48.0.0 ('Fortress Around Your Heart') 32-bit
  13. Writing library                          : libebml v1.4.0 + libmatroska v1.6.0
  14.  
  15. Video
  16. ID                                       : 1
  17. Format                                   : AVC
  18. Format/Info                              : Advanced Video Codec
  19. Format profile                           : [email protected]
  20. Format settings                          : 1 Ref Frames
  21. Format settings, CABAC                   : No
  22. Format settings, Reference frames        : 1 frame
  23. Format settings, GOP                     : M=1, N=12
  24. Codec ID                                 : V_MPEG4/ISO/AVC
  25. Duration                                 : 1 h 59 min
  26. Bit rate                                 : 900 kb/s
  27. Width                                    : 720 pixels
  28. Height                                   : 400 pixels
  29. Display aspect ratio                     : 2.40:1
  30. Frame rate mode                          : Constant
  31. Frame rate                               : 23.976 (24000/1001) FPS
  32. Color space                              : YUV
  33. Chroma subsampling                       : 4:2:0
  34. Bit depth                                : 8 bits
  35. Scan type                                : Progressive
  36. Bits/(Pixel*Frame)                       : 0.130
  37. Stream size                              : 769 MiB (87%)
  38. Writing library                          : x264 core 148
  39. Encoding settings                        : cabac=0 / ref=1 / deblock=1:0:0 / analyse=0x1:0x111 / me=dia / subme=7 / psy=1 / psy_rd=1.00:0.00 / mixed_ref=0 / me_range=4 / chroma_me=1 / trellis=0 / 8x8dct=0 / cqm=0 / deadzone=21,11 / fast_pskip=1 / chroma_qp_offset=-2 / threads=8 / lookahead_threads=1 / sliced_threads=0 / nr=0 / decimate=1 / interlaced=0 / bluray_compat=0 / constrained_intra=0 / bframes=0 / weightp=0 / keyint=12 / keyint_min=7 / scenecut=40 / intra_refresh=0 / rc_lookahead=12 / rc=abr / mbtree=1 / bitrate=900 / ratetol=1.0 / qcomp=0.60 / qpmin=3 / qpmax=51 / qpstep=4 / ip_ratio=1.40 / aq=1:1.00
  40. Language                                 : English
  41. Default                                  : Yes
  42. Forced                                   : No
  43.  
  44. Audio
  45. ID                                       : 2
  46. Format                                   : AAC LC
  47. Format/Info                              : Advanced Audio Codec Low Complexity
  48. Codec ID                                 : A_AAC-2
  49. Duration                                 : 1 h 59 min
  50. Bit rate                                 : 128 kb/s
  51. Channel(s)                               : 2 channels
  52. Channel layout                           : L R
  53. Sampling rate                            : 48.0 kHz
  54. Frame rate                               : 46.875 FPS (1024 SPF)
  55. Compression mode                         : Lossy
  56. Delay relative to video                  : -33 ms
  57. Stream size                              : 110 MiB (12%)
  58. Language                                 : English
  59. Default                                  : Yes
  60. Forced                                   : No
  61.  
  62. Text #1
  63. ID                                       : 3
  64. Format                                   : UTF-8
  65. Codec ID                                 : S_TEXT/UTF8
  66. Codec ID/Info                            : UTF-8 Plain Text
  67. Duration                                 : 1 h 59 min
  68. Bit rate                                 : 61 b/s
  69. Count of elements                        : 1894
  70. Stream size                              : 54.1 KiB (0%)
  71. Title                                    : Scene-RLS.net
  72. Language                                 : English
  73. Default                                  : No
  74. Forced                                   : No
  75.  
  76. Text #2
  77. ID                                       : 4
  78. Format                                   : UTF-8
  79. Codec ID                                 : S_TEXT/UTF8
  80. Codec ID/Info                            : UTF-8 Plain Text
  81. Duration                                 : 1 h 59 min
  82. Bit rate                                 : 62 b/s
  83. Count of elements                        : 1894
  84. Stream size                              : 54.4 KiB (0%)
  85. Title                                    : SDH
  86. Language                                 : English
  87. Default                                  : No
  88. Forced                                   : No
  89.  
  90.  
  91.