Posted : 1 Week ago

  1. The.Exigency.2019.720p.AMZN.WEB-DL.H264.AAC.SNAKE.mkv
  2. General
  3. Unique ID                                : 325083453075743295631889783434677715071 (0xF490CBB10D1EC490768783BE6FDA007F)
  4. Complete name                            : D:\The.Exigency.2019.720p.AMZN.WEB-DL.H264.AAC.SNAKE.mkv
  5. Format                                   : Matroska
  6. Format version                           : Version 4
  7. File size                                : 1.31 GiB
  8. Duration                                 : 1 h 52 min
  9. Overall bit rate                         : 1 668 kb/s
  10. Encoded date                             : UTC 2020-08-01 16:01:13
  11. Writing application                      : mkvmerge v48.0.0 ('Fortress Around Your Heart') 64-bit
  12. Writing library                          : libebml v1.4.0 + libmatroska v1.6.0
  13.  
  14. Video
  15. ID                                       : 1
  16. Format                                   : AVC
  17. Format/Info                              : Advanced Video Codec
  18. Format profile                           : [email protected]
  19. Format settings                          : CABAC / 3 Ref Frames
  20. Format settings, CABAC                   : Yes
  21. Format settings, Reference frames        : 3 frames
  22. Codec ID                                 : V_MPEG4/ISO/AVC
  23. Duration                                 : 1 h 52 min
  24. Bit rate                                 : 1 537 kb/s
  25. Width                                    : 1 280 pixels
  26. Height                                   : 640 pixels
  27. Display aspect ratio                     : 2.000
  28. Frame rate mode                          : Constant
  29. Frame rate                               : 30.000 FPS
  30. Color space                              : YUV
  31. Chroma subsampling                       : 4:2:0
  32. Bit depth                                : 8 bits
  33. Scan type                                : Progressive
  34. Bits/(Pixel*Frame)                       : 0.063
  35. Stream size                              : 1.21 GiB (92%)
  36. Default                                  : Yes
  37. Forced                                   : No
  38.  
  39. Audio
  40. ID                                       : 2
  41. Format                                   : AAC LC
  42. Format/Info                              : Advanced Audio Codec Low Complexity
  43. Codec ID                                 : A_AAC-2
  44. Duration                                 : 1 h 52 min
  45. Bit rate                                 : 128 kb/s
  46. Channel(s)                               : 2 channels
  47. Channel layout                           : L R
  48. Sampling rate                            : 48.0 kHz
  49. Frame rate                               : 46.875 FPS (1024 SPF)
  50. Compression mode                         : Lossy
  51. Stream size                              : 103 MiB (8%)
  52. Language                                 : English
  53. Default                                  : Yes
  54. Forced                                   : No
  55.  
  56. Text
  57. ID                                       : 3
  58. Format                                   : UTF-8
  59. Codec ID                                 : S_TEXT/UTF8
  60. Codec ID/Info                            : UTF-8 Plain Text
  61. Duration                                 : 1 h 50 min
  62. Bit rate                                 : 72 b/s
  63. Count of elements                        : 2061
  64. Stream size                              : 58.8 KiB (0%)
  65. Language                                 : English
  66. Default                                  : Yes
  67. Forced                                   : No
  68.  
  69.  
  70.